A blog about Download free games, Download free software and movies. Learn everything about blogging. Watch live T.V. Send free SMS and much more


Wednesday, 16 January 2013

Death Race 3 Full movie Free Download

death race 3


































Complete name                    : Death Race 3\Death Race 3 Inferno.avi
Format                           : AVI
Format/Info                      : Audio Video Interleave
File size                        : 1.85 GiB
Duration                         : 1h 45mn
Overall bit rate                 : 2 511 Kbps

Video:

Format                           : MPEG-4 Visual
Format profile                   : Simple@L3
Format settings, BVOP            : No
Format settings, QPel            : No
Format settings, GMC             : No warppoints
Format settings, Matrix          : Default (H.263)
Codec ID                         : XVID
Codec ID/Hint                    : XviD
Duration                         : 1h 45mn
Bit rate                         : 2 053 Kbps
Width                            : 704 pixels
Height                           : 396 pixels
Display aspect ratio             : 16:9
Frame rate                       : 25.000 fps
Color space                      : YUV
Chroma subsampling               : 4:2:0
Bit depth                        : 8 bits
Scan type                        : Progressive
Compression mode                 : Lossy
Bits/(Pixel*Frame)               : 0.295
Stream size                      : 1.51 GiB (82%)
Writing library                  : XviD 1.1.2 (UTC 2006-11-01)

Audio:

Format                           : AC-3
Format/Info                      : Audio Coding 3
Mode extension                   : CM (complete main)
Codec ID                         : 2000
Duration                         : 1h 45mn
Bit rate mode                    : Constant
Bit rate                         : 448 Kbps
Channel(s)                       : 6 channels
Channel positions                : Front: L C R, Side: L R, LFE
Sampling rate                    : 48.0 KHz
Bit depth                        : 16 bits
Compression mode                 : Lossy
Stream size                      : 337 MiB (18%)
Alignment                        : Aligned on interleaves
Interleave, duration             : 32 ms (0.80 video frame)
Interleave, preload duration     : 160 ms
torrent button

Share This Post To 
Like This Blog ? and want to know about daily updates to your email? then

Subscribe Via Email  

0 comments

.

Share This Content:

 
© 2011 Rocking Aseel Blog (Have Everything)
Designed by Rocking ASeel Cooperated with Usama Shahid
Released under Creative Commons 3.0 CC BY-NC 3.0
Posts RSSComments RSS
Back to top